coor
一代宗师

[更 早] [欧美] [剧情] [BD-1080P] 飓风/捍卫正义 The.Hurricane.1999.1080p.BluRay.x264.DTS-FGT 11.67GB

-->



◎译  名 飓风 / 捍卫正义 / 黑罪风云 / 黑色飓风
◎片  名 The Hurricane
◎年  代 1999
◎产  地 美国
◎类  别 剧情 / 传记 / 运动
◎语  言 英语
◎上映日期 1999-12-14(美国)
◎IMDb评分 7.6/10 from 89658 users
◎IMDb链接 https://www.imdb.com/title/tt0174856
◎豆瓣评分 8.5/10 from 9306 users
◎豆瓣链接 https://movie.douban.com/subject/1294497/
◎片  长 146分钟
◎导  演 Norman Jewison
◎编  剧 Armyan Bernstein / Dan Gordon
◎主  演 Denzel Washington
      Vicellous Reon Shannon
      Deborah Kara Unger
      Liev Schreiber
      John Hannah


◎标  签 美国 | 种族 | 传记 | 励志 | 剧情 | 监狱 | 人性 | 1999

◎简  介

  一个黑人毛头小伙莱斯(维斯罗斯?雷恩?香农 Vicellous Reon Shannon 饰)在旧书市无意中淘到了拳王“飓风”鲁本?卡特(丹泽尔?华盛顿 Denzel Washington 饰)在狱中写的自传,并开始了对他的故事产生了兴趣。鲁本出生于贫寒家庭,幼年时嫉恶如仇,因此与当地的白人警察结怨。后来,他因为出色的身手,名震拳坛,绰号“飓风”。此后,他参加了越战成为荣誉军官,并在某舞会偶然结识了后来的妻子。当生活进入美满轨道的时候,一次新泽西酒吧杀人案彻底毁掉了他美好希望。莱斯与鲁本通信,了解到他蒙受不白之冤,便说服了朋友们,一起查找证据,希望揭开真相,令他重获自由,然而种族歧视的恶势力却在暗中百般刁难,意图把飓风困死在牢房……

◎获奖情况

  第72届奥斯卡金像奖(2000)
  最佳男主角(提名) 丹泽尔·华盛顿

  第50届柏林国际电影节(2000)
  金熊奖(提名) 诺曼·杰威森
  银熊奖 最佳男演员 丹泽尔·华盛顿

  第57届金球奖(2000)
  电影类 最佳剧情片(提名)
  电影类 最佳导演(提名) 诺曼·杰威森
  电影类 剧情片最佳男主角 丹泽尔·华盛顿

Video
ID : 1
Format : AVC
Format/Info : Advanced Video Codec
Format profile : [email protected]
Format settings : CABAC / 4 Ref Frames
Format settings, CABAC : Yes
Format settings, Reference frames : 4 frames
Codec ID : V_MPEG4/ISO/AVC
Duration : 2 h 25 min
Bit rate : 10 000 kb/s
Width : 1 920 pixels
Height : 1 040 pixels
Display aspect ratio : 1.85:1
Frame rate mode : Constant
Frame rate : 23.976 (24000/1001/189150) FPS
Color space : YUV
Chroma subsampling : 4:2:0
Bit depth : 8 bits
Scan type : Progressive
Bits/(Pixel*Frame) : 0.209
Stream size : 9.90 GiB (85%)
Writing library : x264 core 130 r2273 b3065e6
Encoding settings : cabac=1 / ref=3 / deblock=1:0:0 / analyse=0x3:0x113 / me=hex / subme=7 / psy=1 / psy_rd=1.00:0.00 / mixed_ref=1 / me_range=16 / chroma_me=1 / trellis=1 / 8x8dct=1 / cqm=0 / deadzone=21,11 / fast_pskip=1 / chroma_qp_offset=-2 / threads=12 / lookahead_threads=2 / sliced_threads=0 / nr=0 / decimate=1 / interlaced=0 / bluray_compat=0 / constrained_intra=0 / bframes=3 / b_pyramid=2 / b_adapt=1 / b_bias=0 / direct=1 / weightb=1 / open_gop=0 / weightp=2 / keyint=240 / keyint_min=24 / scenecut=40 / intra_refresh=0 / rc_lookahead=40 / rc=abr / mbtree=1 / bitrate=10000 / ratetol=1.0 / qcomp=0.60 / qpmin=0 / qpmax=69 / qpstep=4 / vbv_maxrate=25000 / vbv_bufsize=31250 / nal_hrd=none / ip_ratio=1.40 / aq=1:1.00
Language : English
Default : Yes
Forced : No
Color range : Limited
Color primaries : BT.709
Transfer characteristics : BT.709
Matrix coefficients : BT.709

Audio
ID : 2
Format : DTS
Format/Info : Digital Theater Systems
Codec ID : A_DTS
Duration : 2 h 25 min
Bit rate mode : Constant
Bit rate : 1 509 kb/s
Channel(s) : 6 channels
Channel layout : C L R Ls Rs LFE
Sampling rate : 48.0 kHz
Frame rate : 93.750 FPS (512 SPF)
Bit depth : 24 bits
Compression mode : Lossy
Stream size : 1.54 GiB (13%)
Language : English
Default : Yes
Forced : No

Text #1
ID : 3
Format : PGS
Muxing mode : zlib
Codec ID : S_HDMV/PGS
Codec ID/Info : Picture based subtitle format used on BDs/HD-DVDs
Language : English
Default : No
Forced : No

Text #2
ID : 4
Format : PGS
Muxing mode : zlib
Codec ID : S_HDMV/PGS
Codec ID/Info : Picture based subtitle format used on BDs/HD-DVDs
Language : French
Default : No
Forced : No

Menu
00:00:00.000 : en:Chapter 1
00:07:53.931 : en:Chapter 2
00:13:44.281 : en:Chapter 3
00:17:21.915 : en:Chapter 4
00:24:55.285 : en:Chapter 5
00:29:03.366 : en:Chapter 6
00:35:11.651 : en:Chapter 7
00:44:06.268 : en:Chapter 8
00:48:45.255 : en:Chapter 9
00:53:10.854 : en:Chapter 10
01:07:24.540 : en:Chapter 11
01:12:33.307 : en:Chapter 12
01:23:58.408 : en:Chapter 13
01:33:08.040 : en:Chapter 14
01:46:06.651 : en:Chapter 15
01:55:16.159 : en:Chapter 16
02:01:13.182 : en:Chapter 17
02:12:44.581 : en:Chapter 18
02:15:06.973 : en:Chapter 19
02:19:33.948 : en:Chapter 20





1 个附件 售价 大小 下载 时间

The.Hurricane.1999.1080p.BluRay.x264.DTS-FGT.torrent 0 金币 29.85K 560 次 1月前

#1楼
发帖时间:2020-07-09 14:49:34   |   回复数:2
jokingcheung
一代宗师
谢谢分享
1月前 #2楼
911degrees
隐世仙人♂
非常感谢,谢谢分享
1月前 #3楼
游客组