coor
一代宗师

[更 早] [欧美] [剧情] [BD-1080P] 东方快车谋杀案 Murder.on.the.Orient.Express.1974.REMASTERED.1080p.BluRay.x264.DTS-FGT 1

-->



◎译  名 东方快车谋杀案 / Agatha Christie's Murder on the Orient Express / 火车谋杀案
◎片  名 Murder on the Orient Express
◎年  代 1974
◎产  地 英国
◎类  别 剧情 / 悬疑 / 犯罪
◎语  言 英语 / 土耳其语 / 法语 / 德语 / 意大利语 / 瑞典语
◎上映日期 1974-11-24
◎IMDb评分 7.3/10 from 53508 users
◎IMDb链接 https://www.imdb.com/title/tt0071877
◎豆瓣评分 8.4/10 from 70468 users
◎豆瓣链接 https://movie.douban.com/subject/1292699/
◎片  长 128 分钟
◎导  演 西德尼·吕美特 Sidney Lumet
◎编  剧 保罗·戴恩 Paul Dehn / 阿加莎·克里斯蒂 Agatha Christie
◎主  演 阿尔伯特·芬尼 Albert Finney
      劳伦·白考尔 Lauren Bacall
      马丁·鲍尔萨姆 Martin Balsam
      英格丽·褒曼 Ingrid Bergman
      杰奎琳·比塞特 Jacqueline Bisset
      让-皮埃尔·卡塞尔 Jean-Pierre Cassel
      肖恩·康纳利 Sean Connery
      约翰·吉尔古德 John Gielgud
      温蒂·希勒 Wendy Hiller
      安东尼·博金斯 Anthony Perkins
      瓦妮莎·雷德格瑞夫 Vanessa Redgrave
      理查德·威德马克 Richard Widmark
      麦克尔·约克 Michael York


◎标  签 悬疑 | 阿加莎·克里斯蒂 | 推理 | 英国 | 侦探 | 经典 | 犯罪 | 英国电影

◎简  介

  1930年,纽约发生了一起骇人听闻的绑票撕票案,主谋卡塞蒂携赎金逍遥法外。 5年后,侦探赫丘里·波罗(艾伯特·芬尼 饰)乘船渡过博斯普鲁斯海峡,并在朋友比安奇(马丁·鲍尔萨姆 饰)的安排下登上东方快车,去往伦敦。一日凌晨,波罗被隔壁10号包间的叫声惊醒。随后,因雪堆掩埋铁轨,列车被迫停于南斯拉夫境内。波罗再次睡下不久,又被吵嚷声惊醒。贵妇哈里特·贝琳达·哈伯德(劳伦·巴考尔 饰)声称10号包间的富翁雷切特(理查德·威德马克 饰)潜入了自己的11号包间。天亮后,雷切特的管家贝多斯(约翰·吉尔古德 饰)端来了饮料,却敲不开10号包间的门。列车员皮埃尔·保罗·米歇尔(让-皮埃尔·卡塞尔 饰)用钥匙开了锁,但是里面挂了门链。波罗与皮埃尔合力扳开门,发现雷切特口角流血死不瞑目。经医生康斯坦丁(乔治·库鲁里斯 饰)检查,雷切特被下了药,身中12刀,死亡时间为0点至2点间……

◎获奖情况

  第47届奥斯卡金像奖(1975)
  最佳男主角(提名) 阿尔伯特·芬尼
  最佳女配角 英格丽·褒曼
  最佳改编剧本(提名) 保罗·戴恩
  最佳摄影(提名) 杰弗里·昂斯沃思
  最佳服装设计(提名) 托尼·沃尔顿
  剧情片最佳原创配乐(提名) 理查德·罗德尼·本尼特

Video
ID : 1
Format : AVC
Format/Info : Advanced Video Codec
Format profile : [email protected]
Format settings : CABAC / 4 Ref Frames
Format settings, CABAC : Yes
Format settings, Reference frames : 4 frames
Codec ID : V_MPEG4/ISO/AVC
Duration : 2 h 7 min
Bit rate : 16.7 Mb/s
Width : 1 836 pixels
Height : 1 080 pixels
Display aspect ratio : 1.700
Frame rate mode : Constant
Frame rate : 24.000 FPS
Color space : YUV
Chroma subsampling : 4:2:0
Bit depth : 8 bits
Scan type : Progressive
Bits/(Pixel*Frame) : 0.351
Stream size : 14.9 GiB (94%)
Title : Murder.on.the.Orient.Express.1974.REMASTERED.1080p.BluRay.x264.DTS-FGT
Writing library : x264 core 148 r2795 aaa9aa8
Encoding settings : cabac=1 / ref=4 / deblock=1:0:0 / analyse=0x3:0x133 / me=umh / subme=10 / psy=1 / psy_rd=1.00:0.00 / mixed_ref=1 / me_range=24 / chroma_me=1 / trellis=2 / 8x8dct=1 / cqm=0 / deadzone=21,11 / fast_pskip=1 / chroma_qp_offset=-2 / threads=34 / lookahead_threads=5 / sliced_threads=0 / nr=0 / decimate=1 / interlaced=0 / bluray_compat=0 / constrained_intra=0 / bframes=8 / b_pyramid=2 / b_adapt=2 / b_bias=0 / direct=3 / weightb=1 / open_gop=0 / weightp=2 / keyint=250 / keyint_min=24 / scenecut=40 / intra_refresh=0 / rc_lookahead=60 / rc=crf / mbtree=1 / crf=19.0 / qcomp=0.60 / qpmin=0 / qpmax=69 / qpstep=4 / ip_ratio=1.40 / aq=1:1.00
Language : English
Default : Yes
Forced : No

Audio
ID : 2
Format : DTS
Format/Info : Digital Theater Systems
Codec ID : A_DTS
Duration : 2 h 7 min
Bit rate mode : Constant
Bit rate : 768 kb/s
Channel(s) : 2 channels
Channel layout : L R
Sampling rate : 48.0 kHz
Frame rate : 93.750 FPS (512 SPF)
Bit depth : 24 bits
Compression mode : Lossy
Stream size : 700 MiB (4%)
Title : Murder.on.the.Orient.Express.1974.REMASTERED.1080p.BluRay.x264.DTS-FGT
Language : English
Default : Yes
Forced : No

Text
ID : 3
Format : UTF-8
Codec ID : S_TEXT/UTF8
Codec ID/Info : UTF-8 Plain Text
Language : English
Default : Yes
Forced : No

Menu
00:00:00.000 : en:Chapter 01
00:10:06.833 : en:Chapter 02
00:20:46.833 : en:Chapter 03
00:31:21.666 : en:Chapter 04
00:41:18.833 : en:Chapter 05
00:52:10.833 : en:Chapter 06
01:02:49.583 : en:Chapter 07
01:11:00.458 : en:Chapter 08
01:23:53.833 : en:Chapter 09
01:34:24.958 : en:Chapter 10
01:44:55.250 : en:Chapter 11
01:55:43.666 : en:Chapter 12





1 个附件 售价 大小 下载 时间

Murder.on.the.Orient.Express.1974.REMASTERED.1080p.BluRay.x264.DTS-FGT.torrent 0 金币 79.86K 980 次 29天前

#1楼
发帖时间:2020-07-09 19:25:24   |   回复数:2
jokingcheung
一代宗师
谢谢分享
29天前 #2楼
911degrees
隐世仙人♂
非常感谢,谢谢分享
29天前 #3楼
游客组