coor
一代宗师

[更 早] [欧美] [剧情] [BD-1080P] 再看我一眼/危情 Against.All.Odds.1984.1080p.BluRay.x264.DTS-FGT 9.72GB

-->



◎译  名 再看我一眼 / 危情
◎片  名 Against All Odds
◎年  代 1984
◎产  地 美国
◎类  别 剧情 / 动作 / 爱情 / 惊悚 / 犯罪 / 冒险
◎语  言 英语
◎上映日期 1984-06-08
◎IMDb评分 5.9/10 from 10332 users
◎IMDb链接 https://www.imdb.com/title/tt0086859
◎豆瓣评分 6.4/10 from 169 users
◎豆瓣链接 https://movie.douban.com/subject/1292949/
◎片  长 128 分钟
◎导  演 泰勒·海克福德 Taylor Hackford
◎编  剧 丹尼尔·梅因沃林 Daniel Mainwaring / Eric Hughes
◎主  演 杰夫·布里吉斯 Jeff Bridges
      雷切尔·沃德 Rachel Ward
      詹姆斯·伍兹 James Woods


◎标  签 美国 | 再看我一眼 | 爱情 | 情色 | 1984 | 经典 | 美国电影 | 1980s

◎简  介

  带着满身的伤病和愤愤不平的郁闷心情,布罗根被职业橄榄球“侠客队”解雇了。虽然布罗根为重返球队和寻求经济赔偿找过球队的老板惠勒夫人和职业律师柯什,但得到的结果却是双双的拒绝。于是,被赶出球队的布罗根立即陷入了经济拮据甚至面临破产的边缘。此时,杰克找到布罗根并以三万美元作为酬劳让布罗根帮他寻找一个叫杰西的女孩。杰克是“宫殿”酒吧的老板,和惠勒夫人的女儿杰西有过一段恋情,而杰西之所以放弃优越的生活条件,选择远离妈妈和杰克是因为长期的家庭原因。
  一个偶然的机会,布罗根找到了杰西并在杰西居住的小岛上和杰西相爱了。就在两个人过着世外桃源般的幸福爱情生活时,球队原主教练萨利找到了他们。身为朋友但不明真相的萨利本想好好教训一番布罗根并劝他返回球队参加比赛,谁知杰西却失手开枪将萨利打死。萨利死后,杰西当时就跑了,等布罗根处理完萨利的尸体回到城里找到杰克时,让布罗根意想不到的是,杰西居然出现在杰克的身边,而且杰克已经知道发生在丛林小岛上的一切事情。
  为了从布罗根身边彻底夺回杰西,杰克设下陷阱让布罗根去柯什的办公室偷取一份文件,结果文件没偷着,布罗根却发现柯什已经被人杀死在浴室里。在柯什事务所职员伊迪的帮助下,布罗根战胜了杰克派来的杀手并拿到了一份记录着惠勒和本在球员之间从事金钱交易的秘密文件。直到此时,布罗根才知道这其中的厉害关系。原来,惠勒和本是杰克的幕后庄家,杰克只是摆在前面的一个棋子,而经营俱乐部也只是一个表象,真正的利益是和镇长勾结起来与环保主义者和规划委员会进行较量并获取“惠勒峡谷”的土地开发权。
  布罗根以文件相要挟把本约到了“惠勒峡谷”的一个山头儿上。对峙之中,本为了保全自己的利益而将杰克推了出来。就在恼羞成怒的杰克准备向布罗根开枪时,和本一起上山的杰西抢先开枪打死了杰克。最终,在杰西的恳求下,本放过了布罗根并和布罗根本达成了协议。“惠勒峡谷”开工奠基那天,布罗根出现在惠勒夫人的庆祝现场。然而,遗憾的是,在本的面前,布罗根和杰西之间只能是持久的相对凝望。

◎获奖情况

  第57届奥斯卡金像奖(1985)
  最佳原创歌曲(提名) 菲尔·柯林斯

Video
ID : 1
Format : AVC
Format/Info : Advanced Video Codec
Format profile : [email protected]
Format settings, CABAC : No
Format settings, ReFrames : 2 frames
Codec ID : V_MPEG4/ISO/AVC
Duration : 2h 1mn
Bit rate : 10 000 Kbps
Width : 1 920 pixels
Height : 1 040 pixels
Display aspect ratio : 1.85:1
Frame rate mode : Constant
Frame rate : 23.976 fps
Color space : YUV
Chroma subsampling : 4:2:0
Bit depth : 8 bits
Scan type : Progressive
Bits/(Pixel*Frame) : 0.209
Stream size : 8.25 GiB (85%)
Writing library : x264 core 112
Encoding settings : cabac=0 / ref=1 / deblock=1:0:0 / analyse=0x1:0x111 / me=umh / subme=5 / psy=1 / psy_rd=0.00:0.00 / mixed_ref=0 / me_range=16 / chroma_me=1 / trellis=0 / 8x8dct=0 / cqm=0 / deadzone=21,11 / fast_pskip=0 / chroma_qp_offset=0 / threads=6 / sliced_threads=0 / nr=0 / decimate=1 / interlaced=0 / constrained_intra=0 / bframes=3 / b_pyramid=0 / b_adapt=1 / b_bias=0 / direct=1 / weightb=0 / open_gop=0 / weightp=0 / keyint=240 / keyint_min=23 / scenecut=40 / intra_refresh=0 / rc_lookahead=40 / rc=abr / mbtree=1 / bitrate=10000 / ratetol=1.0 / qcomp=0.60 / qpmin=3 / qpmax=51 / qpstep=4 / ip_ratio=1.40 / aq=1:1.00
Language : English
Default : Yes
Forced : No
Color range : Limited
Color primaries : BT.709
Transfer characteristics : BT.709
Matrix coefficients : BT.709

Audio
ID : 2
Format : DTS
Format/Info : Digital Theater Systems
Mode : 16
Format settings, Endianness : Big
Codec ID : A_DTS
Duration : 2h 1mn
Bit rate mode : Constant
Bit rate : 1 509 Kbps
Channel(s) : 6 channels
Channel positions : Front: L C R, Side: L R, LFE
Sampling rate : 48.0 KHz
Frame rate : 93.750 fps (512 spf)
Bit depth : 16 bits
Compression mode : Lossy
Stream size : 1.28 GiB (13%)
Language : English
Default : Yes
Forced : No

Menu
00:00:00.000 : en:Chapter 1
00:04:59.192 : en:Chapter 2
00:09:59.950 : en:Chapter 3
00:14:59.249 : en:Chapter 4
00:19:59.424 : en:Chapter 5
00:24:59.516 : en:Chapter 6
00:29:59.273 : en:Chapter 7
00:34:59.365 : en:Chapter 8
00:39:59.957 : en:Chapter 9
00:44:59.756 : en:Chapter 10
00:49:59.806 : en:Chapter 11
00:54:59.856 : en:Chapter 12
00:59:59.280 : en:Chapter 13
01:04:59.955 : en:Chapter 14
01:09:59.797 : en:Chapter 15
01:14:59.763 : en:Chapter 16
01:19:59.646 : en:Chapter 17
01:24:59.696 : en:Chapter 18
01:29:59.912 : en:Chapter 19
01:34:59.545 : en:Chapter 20
01:39:59.678 : en:Chapter 21
01:44:59.644 : en:Chapter 22
01:49:59.569 : en:Chapter 23
01:54:59.911 : en:Chapter 24
01:59:59.210 : en:Chapter 25





3 个附件 售价 大小 下载 时间

Blood.Quantum.2019.1080p.BluRay.REMUX.AVC.DTS-HD.MA.5.1-FGT.torrent 0 金币 64.99K 238 次 29天前

Last.Moment.of.Clarity.2020.1080p.BluRay.REMUX.AVC.DTS-HD.MA.TrueHD.5.1-FGT.torrent 0 金币 67.19K 161 次 29天前

Against.All.Odds.1984.1080p.BluRay.x264.DTS-FGT.torrent 0 金币 97.86K 770 次 29天前

#1楼
发帖时间:2020-07-09 21:31:22   |   回复数:2
kola13
武林盟主
感谢分享
29天前 #2楼
911degrees
隐世仙人♂
非常感谢,谢谢分享
29天前 #3楼
游客组