coor
一代宗师

[更 早] [其他] [剧情] [BD-1080P] 朦胧的欲望 That.Obscure.Object.of.Desire.1977.DUBBED.1080p.BluRay.x264.DTS-FGT 6.98GB

-->



◎译  名 朦胧的欲望 / That Obscure Object of Desire / 欲望的隐晦目的
◎片  名 Cet obscur objet du désir
◎年  代 1977
◎产  地 法国 / 西班牙
◎类  别 剧情 / 喜剧 / 爱情
◎语  言 法语 / 西班牙语
◎上映日期 1977-08-17
◎IMDb评分 7.9/10 from 19973 users
◎IMDb链接 https://www.imdb.com/title/tt0075824
◎豆瓣评分 8.3/10 from 5944 users
◎豆瓣链接 https://movie.douban.com/subject/1303071/
◎片  长 102 分钟
◎导  演 Luis Bu?uel
◎编  剧 Luis Bu?uel / Jean-Claude Carrière
◎主  演 Fernando Rey
      Carole Bouquet
      ángela Molina
      Julien Bertheau


◎标  签 西班牙 | 法国 | 布努艾尔 | 路易斯·布努艾尔 | 西班牙电影 | LuisBu?uel | 爱情 | 1970s

◎简  介

  法国绅士马德奥(费尔南多?雷依 Fernando Rey 饰)在西班牙乘车回国,在车厢里他遇到了一对母女、一个侏儒以及一个弟弟的朋友。火车发动前,一个女人(莫利纳?安赫拉 Molina Angela 饰)拎着行李匆匆赶来,马德奥向她泼了一桶冷水,这让众人颇为不解。回到车厢后,马德奥跟其他人讲述自己的遭遇:原来这女人是马德奥哥哥家的西班牙女仆孔奇塔(卡洛尔?布盖 Carole Bouquet 饰)。她的美貌深深吸引了马德奥。为了示爱,他资助孔齐塔母女摆脱经济困难,然后提出让她做自己的爱人。虽然,孔奇塔对他半推半就,但是始终没有答应他的性要求。这令他非常恼火,特别是当他发现这个自称处女的女人居然另有情人时,更是怒不可遏……
  本片中,西班牙导演布努埃尔用两名女演员扮演同一角色,颇具象征意义。

◎获奖情况

  第50届奥斯卡金像奖(1978)
  最佳改编剧本(提名) 让-克洛德·卡里埃 / 路易斯·布努埃尔
  最佳外语片(提名)

Video
ID : 1
Format : AVC
Format/Info : Advanced Video Codec
Format profile : [email protected]
Format settings : CABAC / 4 Ref Frames
Format settings, CABAC : Yes
Format settings, Reference frames : 4 frames
Codec ID : V_MPEG4/ISO/AVC
Duration : 1 h 43 min
Bit rate : 7 934 kb/s
Width : 1 808 pixels
Height : 1 080 pixels
Display aspect ratio : 5:3
Frame rate mode : Constant
Frame rate : 24.000 FPS
Color space : YUV
Chroma subsampling : 4:2:0
Bit depth : 8 bits
Scan type : Progressive
Bits/(Pixel*Frame) : 0.169
Stream size : 5.75 GiB (82%)
Writing library : x264 core 128 r2216 198a7ea
Encoding settings : cabac=1 / ref=4 / deblock=1:0:0 / analyse=0x3:0x113 / me=umh / subme=7 / psy=1 / psy_rd=1.00:0.00 / mixed_ref=1 / me_range=16 / chroma_me=1 / trellis=1 / 8x8dct=1 / cqm=0 / deadzone=21,11 / fast_pskip=0 / chroma_qp_offset=-2 / threads=12 / lookahead_threads=2 / sliced_threads=0 / nr=0 / decimate=1 / interlaced=0 / bluray_compat=0 / constrained_intra=0 / bframes=3 / b_pyramid=2 / b_adapt=1 / b_bias=0 / direct=1 / weightb=1 / open_gop=0 / weightp=2 / keyint=250 / keyint_min=24 / scenecut=40 / intra_refresh=0 / rc_lookahead=40 / rc=crf / mbtree=1 / crf=20.0 / qcomp=0.60 / qpmin=0 / qpmax=69 / qpstep=4 / ip_ratio=1.40 / aq=1:1.00
Language : English
Default : No
Forced : No

Audio
ID : 2
Format : DTS
Format/Info : Digital Theater Systems
Codec ID : A_DTS
Duration : 1 h 43 min
Bit rate mode : Constant
Bit rate : 1 509 kb/s
Channel(s) : 2 channels
Channel layout : L R
Sampling rate : 48.0 kHz
Frame rate : 93.750 FPS (512 SPF)
Bit depth : 16 bits
Compression mode : Lossy
Stream size : 1.09 GiB (16%)
Language : English
Default : No
Forced : No

Text
ID : 3
Format : UTF-8
Codec ID : S_TEXT/UTF8
Codec ID/Info : UTF-8 Plain Text
Title : FORCED
Language : English
Default : Yes
Forced : Yes





1 个附件 售价 大小 下载 时间

That.Obscure.Object.of.Desire.1977.DUBBED.1080p.BluRay.x264.DTS-FGT.torrent 0 金币 70.45K 658 次 29天前

#1楼
发帖时间:2020-07-09 21:40:59   |   回复数:3
jokingcheung
一代宗师
谢谢分享
29天前 #2楼
kola13
武林盟主
感谢分享
29天前 #3楼
911degrees
隐世仙人♂
非常感谢,谢谢分享
29天前 #4楼
游客组